<?xml version="1.0" standalone="no"?>
<!DOCTYPE svg PUBLIC "-//W3C//DTD SVG 1.1//EN" "http://www.w3.org/Graphics/SVG/1.1/DTD/svg11.dtd" >
<!--
2020-8-3: Created with FontForge (http://fontforge.org)
-->
<svg xmlns="http://www.w3.org/2000/svg" xmlns:xlink="http://www.w3.org/1999/xlink" version="1.1">
<metadata>
Created by FontForge 20170731 at Mon Aug  3 14:46:08 2020
 By root

</metadata>
<defs>
<font id="Flaticon" horiz-adv-x="512" >
  <font-face 
    font-family="Flaticon"
    font-weight="400"
    font-stretch="normal"
    units-per-em="512"
    panose-1="2 0 5 3 0 0 0 0 0 0"
    ascent="448"
    descent="-64"
    bbox="-0.00102858 -64.0044 512.002 448.004"
    underline-thickness="25.6"
    underline-position="-51.2"
    unicode-range="U+0020-F143"
  />
    <missing-glyph />
    <glyph glyph-name="space" unicode=" " horiz-adv-x="200" 
 />
    <glyph glyph-name="040-bold-wide-arrow-down" unicode="&#xf127;" 
d="M493.998 156.272l-197.646 -197.332c-23.2617 -23.209 -58.0762 -23.209 -81.2324 0l-197.227 197.332c-23.1572 23.1045 -24.1504 59.4346 -1.15039 82.3828c22.4775 22.4775 60.376 20.0723 82.1738 -1.77734l96.3916 -96.3916s0.314453 243.123 0.314453 243.228
c0 16.1006 6.27246 31.625 17.9814 42.6553c28.2275 26.4502 77.626 19.3936 96.3916 -14.4795c4.75684 -8.57324 7.26562 -18.3477 7.21387 -28.1758l-0.208984 -243.228s96.2871 96.3408 96.3398 96.3926c21.9023 21.9014 59.6436 24.0977 82.0166 1.77734
c23 -22.9492 21.7979 -59.2783 -1.35938 -82.3838z" />
    <glyph glyph-name="020-bold-close" unicode="&#xf113;" 
d="M494.692 347.152l-155.133 -155.149l155.133 -155.142c23.0752 -23.084 23.0752 -60.4775 0 -83.5615c-11.5293 -11.5293 -26.6455 -17.2979 -41.7539 -17.2979c-15.1338 0 -30.251 5.75977 -41.7715 17.2979l-155.167 155.159l-155.155 -155.157
c-11.5273 -11.5293 -26.6455 -17.2988 -41.7666 -17.2988c-15.1182 0 -30.2246 5.76074 -41.7637 17.2988c-23.0752 23.0732 -23.0752 60.4678 0 83.5615l155.129 155.142l-155.138 155.147c-23.0752 23.0752 -23.0752 60.4766 0 83.5518
c23.0713 23.0576 60.4512 23.0576 83.5303 0l155.162 -155.148l155.151 155.148c23.084 23.0576 60.4678 23.0576 83.5342 0c23.084 -23.0752 23.084 -60.4766 0.00878906 -83.5518z" />
    <glyph glyph-name="033-bold-double-arrow-back" unicode="&#xf120;" 
d="M444.667 -64c-18.3604 0 -36.6133 7.9668 -49.1182 23.2656l-156.373 191.985c-18.9922 23.3193 -18.9922 56.7139 0 79.9805l157.64 193.462c22.0527 27.0645 61.9375 31.1787 89.0547 9.07422c27.0645 -22.0527 31.1797 -61.9375 9.07422 -89.0547l-125.035 -153.472
l123.77 -151.942c22.1055 -27.1172 18.043 -66.9492 -9.07422 -89.0547c-11.7129 -9.60156 -25.9043 -14.2441 -39.9375 -14.2441zM173.493 -40.6807l-156.425 191.932c-18.9932 23.2666 -18.9932 56.7148 0 79.9805l157.692 193.462
c22.0518 27.0654 61.9375 31.1797 89.0537 9.0752c27.0645 -22.0527 31.1797 -61.9385 9.07422 -89.0557l-125.035 -153.472l123.769 -151.941c22.1064 -27.1172 18.043 -66.9492 -9.07324 -89.0547c-11.7129 -9.60156 -25.9043 -14.2441 -39.9375 -14.2441
c-18.3604 0 -36.6143 7.96582 -49.1182 23.3184z" />
    <glyph glyph-name="022-hide" unicode="&#xf115;" 
d="M88.7676 90.915c-29.5654 19.6895 -55.8066 44.6426 -77.123 74.0605l-11.6445 16.0713l11.6436 16.0684c56.6553 78.1855 148.002 124.862 244.355 124.862c19.6465 0 39.0576 -2.04297 58.0361 -5.79004l-16.4365 -16.4424l-32.7871 -32.7803l-29.1162 -29.1162
c-5.00098 5.09961 -11.9561 8.27637 -19.6631 8.27637c-15.2314 0 -27.582 -12.3506 -27.582 -27.583c0 -7.71094 3.17676 -14.6611 8.27637 -19.668l-32.041 -32.0361c-5.79004 12.6865 -9.09766 26.7402 -9.09766 41.5938c0 14.624 3.19922 28.4814 8.81836 41.0127
c-36.5986 -14.6846 -69.5918 -38.0225 -95.7129 -68.3975c17.2373 -20.043 37.4746 -36.999 59.75 -50.457zM410.969 278.855c34.5771 -20.7197 65.166 -48.3242 89.3857 -81.7344l11.6445 -16.0703l-11.6445 -16.0703
c-56.6504 -78.1914 -148.002 -124.866 -244.355 -124.866c-25.3037 0 -50.2363 3.2959 -74.3135 9.45996l46.873 46.873c9.06445 -1.02441 18.2227 -1.56152 27.4404 -1.56152c72.0137 0 140.619 31.8701 187.307 86.1602
c-20.4688 23.7979 -45.1484 43.2852 -72.4785 57.668zM256 108.019c-5.00098 0 -9.875 0.482422 -14.6787 1.18848l113.896 113.903c0.707031 -4.80371 1.19531 -9.67773 1.19531 -14.6787c0 -55.4561 -44.9561 -100.413 -100.412 -100.413zM222.678 113.797
l-14.1738 -14.168l-44.8242 -44.8242l-79.5605 -79.5596c-6.05762 -6.06348 -14.0049 -9.09277 -21.9473 -9.09277c-7.94141 0 -15.8887 3.03418 -21.9463 9.09277c-12.1201 12.1211 -12.1201 31.7725 0 43.8936l62.833 62.8281l40.3223 40.3223l29.6367 29.6357
l39.4023 39.4023l30.8359 30.8359l43.083 43.083l26.1758 26.1758l20.3799 20.3799l96.9502 96.9551c6.05664 6.06348 14.0039 9.0918 21.9453 9.0918c7.94238 0 15.8887 -3.0332 21.9473 -9.0918c12.1201 -12.1211 12.1201 -31.7734 0 -43.8936l-77.6494 -77.6543
l-40.9854 -40.9854l-4.46973 -4.46973z" />
    <glyph glyph-name="045-bold-long-arrow-down" unicode="&#xf12c;" 
d="M234.709 -54.3906l-124.051 160.021c-12.8184 16.126 -1.24023 40.5225 19.4336 40.5225h43.0039c13.6445 0 23.1553 9.92383 23.1553 23.5684v254.297c0 13.6455 12.4043 23.9824 26.4629 23.9824h66.5723c14.0586 0 26.877 -10.3369 26.877 -23.9824v-254.297
c0 -13.6445 9.10059 -23.5684 22.7412 -23.5684h42.5938c21.0879 0 32.6699 -24.3965 19.8477 -40.9355l-127.354 -159.607c-9.92383 -12.8184 -29.3584 -12.8184 -39.2822 0z" />
    <glyph glyph-name="044-bold-long-arrow-up" unicode="&#xf12b;" 
d="M222.654 -64c-14.0127 0 -26.3779 11.54 -26.7861 25.1416v253.476c0 13.6006 -9.47949 26.3779 -23.0801 26.3779h-42.4521c-20.6074 0 -32.1484 23.0801 -19.3711 39.1543l123.646 158.268c9.8916 12.7773 29.2627 12.7773 39.1543 0l127.356 -157.855
c12.7725 -16.4863 0.820312 -39.5664 -19.7881 -39.5664h-42.4512c-13.6016 0 -22.6689 -12.7773 -22.6689 -26.3779v-253.063c0 -14.0137 -13.1895 -25.5537 -26.79 -25.5537h-66.7695z" />
    <glyph glyph-name="056-bold-sort" unicode="&#xf137;" 
d="M63 415c34.7383 0 63 -28.2617 63 -63s-28.2617 -63 -63 -63s-63 28.2617 -63 63s28.2617 63 63 63zM63 255c34.7383 0 63 -28.2617 63 -63s-28.2617 -63 -63 -63s-63 28.2617 -63 63s28.2617 63 63 63zM63 95c34.7383 0 63 -28.2617 63 -63s-28.2617 -63 -63 -63
s-63 28.2617 -63 63s28.2617 63 63 63zM465 399c25.916 0 47 -21.084 47 -47s-21.084 -47 -47 -47h-258c-25.916 0 -47 21.084 -47 47s21.084 47 47 47h258zM465 239c25.916 0 47 -21.084 47 -47s-21.084 -47 -47 -47h-258c-25.916 0 -47 21.084 -47 47s21.084 47 47 47h258
zM465 79c25.916 0 47 -21.084 47 -47s-21.084 -47 -47 -47h-258c-25.916 0 -47 21.084 -47 47s21.084 47 47 47h258z" />
    <glyph glyph-name="036-bold-arrow-next" unicode="&#xf123;" 
d="M115.479 37.6113l125.141 125.144c16.1064 16.1113 16.1064 42.1309 0 58.2383l-124.728 125.549c-23.9541 23.9541 -23.1279 63.1895 2.06543 86.3174c23.541 21.8887 61.124 19.4111 83.8398 -3.30371l194.938 -195.351
c11.5635 -11.5684 17.3457 -26.8457 17.3457 -42.127s-5.78223 -30.5615 -17.3457 -42.126l-195.351 -195.351c-22.7158 -23.1318 -59.8857 -25.1973 -83.8398 -3.30371c-25.6064 23.124 -26.0195 62.3594 -2.06543 86.3135z" />
    <glyph glyph-name="025-up-and-down" unicode="&#xf118;" 
d="M324.96 81.918c11.125 0 15.6797 -7.83398 10.1631 -17.4912l-69.1426 -121.179c-5.51074 -9.66309 -14.4561 -9.66309 -19.9678 0l-69.1377 121.173c-5.51172 9.66309 -0.963867 17.4971 10.1621 17.4971h137.923zM265.985 440.752l69.1357 -121.179
c5.51172 -9.66309 0.963867 -17.4971 -10.1621 -17.4971h-137.923c-11.125 0 -15.6738 7.83398 -10.1621 17.4971l69.1436 121.179c5.51172 9.66406 14.4561 9.66406 19.9678 0z" />
    <glyph glyph-name="061-wrench" unicode="&#xf13c;" 
d="M224.37 249.804c8.10547 -20.3594 19.9971 -38.3818 35.6797 -54.0684c15.6904 -15.6836 33.71 -27.5762 54.0625 -35.6816l-212.52 -212.526c-7.6875 -7.6875 -17.0361 -11.5273 -28.0479 -11.5273c-10.8008 0 -20.2529 3.83984 -28.3574 11.5273l-33.0303 33.6553
c-7.89453 7.48535 -11.8428 16.8311 -11.8428 28.0508c0 11.0107 3.94922 20.4658 11.8428 28.3574zM107.515 15.1533c3.94531 3.94824 5.91992 8.62207 5.91992 14.0225c0 5.39746 -1.97461 10.0781 -5.91992 14.0303c-3.94824 3.93945 -8.62305 5.91699 -14.0254 5.91699
c-5.40527 0 -10.0752 -1.97754 -14.0225 -5.91699c-3.94727 -3.95312 -5.92188 -8.63379 -5.92188 -14.0303c0 -5.40137 1.97461 -10.0742 5.92188 -14.0225c3.94727 -3.94434 8.62109 -5.9209 14.0225 -5.9209c5.39941 0 10.0732 1.97656 14.0254 5.9209zM509.041 303.404
c1.7627 -2.08008 2.65234 -4.67773 2.64453 -7.78613c0 -8.09961 -2.38867 -19.1133 -7.16309 -33.0303c-9.76367 -27.8379 -26.8574 -50.4307 -51.2627 -67.7773c-24.4092 -17.3428 -51.2617 -26.0225 -80.5566 -26.0225c-38.4326 0 -71.3086 13.6631 -98.624 40.9775
c-27.3174 27.3174 -40.9785 60.1953 -40.9785 98.6279s13.6533 71.3105 40.9785 98.626c27.3154 27.3174 60.1914 40.9805 98.624 40.9805c12.0459 0 24.6699 -1.71484 37.8633 -5.1416c13.1846 -3.42773 24.3525 -8.25879 33.4971 -14.4932
c3.32324 -2.28516 4.98535 -5.19336 4.98535 -8.72266c0 -3.53223 -1.66211 -6.44141 -4.98535 -8.72559l-91.3027 -52.668v-69.8037l60.1465 -33.3447c1.03613 0.624023 9.24121 5.66113 24.6191 15.1162c15.3701 9.45508 29.4492 17.8672 42.2236 25.2402
c12.7812 7.375 20.1025 11.0645 21.9707 11.0645c3.11133 0 5.55469 -1.03613 7.32031 -3.11719z" />
    <glyph glyph-name="013-long-arrow-up" unicode="&#xf10c;" 
d="M460.62 255.076c10.9229 -10.9189 10.9639 -28.6846 0.0458984 -39.5986l-16.7256 -16.7842c-5.27441 -5.26562 -12.2002 -8.16309 -19.7012 -8.16309s-14.3447 2.89746 -19.6104 8.16309l-108.64 109.011v-343.678c0 -15.4346 -13.3125 -28.0264 -28.7471 -28.0264
h-23.7266c-15.4355 0 -27.5234 12.5918 -27.5234 28.0264v342.462l-108.027 -107.795c-5.2666 -5.26562 -12.5381 -8.16309 -20.0352 -8.16309c-7.50098 0 -14.5312 2.89746 -19.8018 8.16309l-16.7754 16.7842c-10.9141 10.9102 -10.9141 28.6797 0 39.5986
l184.766 184.761c5.27051 5.27051 12.2969 8.16309 19.793 8.16309c7.64746 0 14.6777 -2.89258 19.9473 -8.16309z" />
    <glyph glyph-name="057-eye" unicode="&#xf138;" 
d="M115.543 25.0312c-41.5381 21.9756 -77.9375 53.917 -105.158 92.3613c-13.8467 19.5635 -13.8467 45.7871 0 65.2979c27.2207 38.4443 63.6201 70.3857 105.158 92.3613c21.2422 11.2246 43.7422 19.8779 66.9766 25.7002
c23.917 6.03125 48.6191 9.07324 73.4805 9.07324c24.8604 0 49.5635 -3.09473 73.4795 -9.07324c23.2354 -5.82227 45.7881 -14.4756 66.9766 -25.7002c41.5391 -21.9756 77.9385 -53.917 105.158 -92.3613c13.8467 -19.5625 13.8467 -45.7861 0 -65.2979
c-27.2197 -38.4443 -63.6191 -70.3857 -105.158 -92.3613c-21.2412 -11.2236 -43.7412 -19.8779 -66.9766 -25.6992c-23.916 -6.03223 -48.6191 -9.07422 -73.4795 -9.07422c-24.8613 0 -49.5635 3.09473 -73.4805 9.07422
c-23.2344 5.82129 -45.7871 14.4756 -66.9766 25.6992zM256 189.456c-21.7666 0 -39.4414 -17.6738 -39.4414 -39.4404c0 -21.7656 17.6748 -39.4414 39.4414 -39.4414c21.7656 0 39.4404 17.6758 39.4404 39.4414c0 21.7666 -17.6748 39.4404 -39.4404 39.4404z
M369.445 224.02c-7.08105 3.77637 -14.4238 7.18555 -21.9238 10.2803c20.4023 -22.1855 32.833 -51.7139 32.833 -84.2314s-12.4307 -62.0996 -32.833 -84.2314c7.5 2.98828 14.791 6.39746 21.9238 10.1738c33.3574 17.623 62.5703 43.2178 84.5469 74.0049
c-21.9766 30.7871 -51.1895 56.3818 -84.5469 74.0039zM142.555 224.02c-33.4102 -17.6221 -62.624 -43.2168 -84.5469 -74.1094c21.9756 -30.7871 51.1895 -56.3818 84.5469 -74.0049c7.13281 -3.72266 14.4756 -7.13184 21.9238 -10.1748
c-20.4033 22.1865 -32.833 51.7139 -32.833 84.2324c0 32.5176 12.4297 62.0986 32.832 84.2324c-7.5 -2.99023 -14.79 -6.39941 -21.9229 -10.1758zM22.5 290.104c-8.49609 13.4795 -4.40527 31.3115 9.07422 39.7559c66.5039 41.8018 144.127 63.8818 224.426 63.8818
c80.2979 0 157.921 -22.0801 224.426 -63.9346c13.4785 -8.44336 17.5703 -26.2764 9.07324 -39.7559c-8.44434 -13.4785 -26.2773 -17.5693 -39.7559 -9.07324c-57.3252 35.9795 -124.302 55.0186 -193.743 55.0186s-136.418 -19.0391 -193.744 -55.0186
c-4.77246 -2.98926 -10.0703 -4.40527 -15.3145 -4.40527c-9.59863 0 -18.9863 4.8252 -24.4414 13.5312z" />
    <glyph glyph-name="003-double-arrow-down" unicode="&#xf102;" 
d="M501.497 220.17c14.0039 -13.999 14.0039 -36.6934 0 -50.6982l-220.149 -220.155c-6.99902 -6.98535 -16.1748 -10.4922 -25.3496 -10.4922s-18.3486 3.49219 -25.3457 10.4922l-220.149 220.155c-14.0049 14.0049 -14.0049 36.6992 0 50.6982
c14.002 14 36.7031 14 50.7012 0l194.793 -194.794l194.794 194.794c13.998 13.9932 36.707 13.9932 50.7061 0zM230.652 163.817l-220.147 220.149c-14.0059 14.0078 -14.0059 36.71 0 50.7109c14.001 13.998 36.7021 13.998 50.7002 0l194.793 -194.794l194.794 194.794
c13.9971 13.998 36.7002 13.998 50.7051 0c14.0039 -14.001 14.0039 -36.7031 0 -50.7109l-220.149 -220.149c-6.99902 -6.98438 -16.1748 -10.4912 -25.3496 -10.4912s-18.3496 3.50684 -25.3457 10.4912z" />
    <glyph glyph-name="004-double-arrow-up" unicode="&#xf103;" 
d="M10.499 163.834c-13.999 13.9971 -13.999 36.6885 0 50.6943l220.156 220.157c6.99512 6.98828 16.1699 10.4951 25.3457 10.4951c9.16992 0 18.3447 -3.5 25.3438 -10.4951l220.149 -220.156c13.9971 -14.0059 13.9971 -36.6973 0 -50.6943
c-14.0039 -14.0039 -36.707 -14.0039 -50.7109 0l-194.782 194.786l-194.794 -194.787c-14.0059 -13.9971 -36.707 -13.9971 -50.708 0zM281.345 220.18l220.156 -220.148c13.9971 -14.0049 13.9971 -36.708 0 -50.7119c-14.0039 -13.9971 -36.707 -13.9971 -50.7109 0
l-194.789 194.793l-194.794 -194.793c-14.0059 -13.9971 -36.707 -13.9971 -50.708 0c-13.999 13.9971 -13.999 36.7002 0 50.7041l220.156 220.156c6.99512 6.98926 16.1699 10.4951 25.3457 10.4951c9.16992 0 18.3447 -3.50586 25.3438 -10.4951z" />
    <glyph glyph-name="035-bold-arrow-down" unicode="&#xf122;" 
d="M213.944 51.2607l-195.347 195.351c-23.1279 22.7148 -25.1934 60.2988 -3.30371 83.8398c23.124 25.6064 62.3594 26.0195 86.3174 2.06445l125.14 -125.14c16.1074 -16.1074 42.1309 -16.1074 58.2334 0l125.553 125.14
c23.9502 23.9551 63.1855 23.1289 86.3135 -2.06445c21.8936 -23.541 19.4111 -61.125 -3.30371 -83.8398l-195.351 -195.351c-11.5635 -11.5684 -26.8447 -17.3457 -42.126 -17.3457s-30.5586 5.77734 -42.126 17.3457z" />
    <glyph glyph-name="059-menu" unicode="&#xf13a;" 
d="M0 367.839c0 22.8379 18.5352 41.373 41.374 41.373h429.252c22.8389 0 41.374 -18.5352 41.374 -41.373c0 -22.8389 -18.5352 -41.374 -41.374 -41.374h-429.252c-22.8389 0 -41.374 18.5352 -41.374 41.374zM470.626 233.374c22.8594 0 41.374 -18.5361 41.374 -41.374
s-18.5352 -41.374 -41.374 -41.374h-429.252c-22.8389 0 -41.374 18.5361 -41.374 41.374s18.5352 41.374 41.374 41.374h429.252zM470.626 57.5352c22.8594 0 41.374 -18.5352 41.374 -41.374c0 -22.8379 -18.5352 -41.373 -41.374 -41.373h-429.252
c-22.8389 0 -41.374 18.5352 -41.374 41.373c0 22.8389 18.5352 41.374 41.374 41.374h429.252z" />
    <glyph glyph-name="019-solid-plus" unicode="&#xf112;" 
d="M482.872 418.875c19.4062 -19.4072 29.1279 -42.8877 29.1279 -70.4385v-312.873c0 -27.2637 -9.70605 -50.6709 -29.1172 -70.2207c-19.4131 -19.5625 -42.8838 -29.332 -70.4355 -29.332h-312.894c-27.5527 0 -51.0361 9.77148 -70.4424 29.332
c-19.4102 19.5488 -29.1113 42.9561 -29.1113 70.2207v312.873c0 27.5508 9.70605 51.0312 29.1113 70.4365c19.4004 19.4102 42.8857 29.1162 70.4424 29.1162h312.883c27.5508 0 51.0332 -9.70605 70.4355 -29.1143zM455.105 35.5498v312.879
c0 11.8506 -4.1543 21.9268 -12.4434 30.2207c-8.28809 8.29883 -18.3682 12.4443 -30.2148 12.4443h-312.894c-11.8516 0 -21.9277 -4.15234 -30.2207 -12.4443c-8.29688 -8.29395 -12.4404 -18.3701 -12.4404 -30.2207v-312.879
c0 -11.8525 4.14355 -21.9316 12.4404 -30.2207c8.30078 -8.30078 18.3691 -12.4443 30.2207 -12.4443h312.883c11.8477 0 21.9268 4.14355 30.2148 12.4443c8.29395 8.28906 12.4541 18.3682 12.4541 30.2207zM384 220.435c4.14355 0 7.55371 -1.33691 10.2158 -4.00098
c2.66309 -2.66113 3.99023 -6.0752 3.99023 -10.2217v-28.4424c0 -4.14941 -1.3252 -7.55762 -3.99023 -10.2158c-2.66211 -2.65918 -6.07227 -4.00098 -10.2158 -4.00098h-99.5527v-99.5508c0 -4.15039 -1.33105 -7.55762 -4.00586 -10.2168
c-2.65234 -2.66309 -6.06152 -3.99414 -10.2178 -3.99414h-28.4414c-4.14648 0 -7.55566 1.33105 -10.2227 3.99414c-2.66797 2.65918 -3.99707 6.06641 -3.99707 10.2168v99.5527h-99.5547c-4.14648 0 -7.55762 1.3418 -10.2227 4
c-2.66797 2.65918 -3.99707 6.06641 -3.99707 10.2168v28.4414c0 4.14746 1.33398 7.55566 3.99707 10.2227c2.66211 2.66699 6.07617 3.99707 10.2227 3.99707h99.5547v99.5547c0 4.14648 1.3291 7.55566 3.99707 10.2227c2.66699 2.66797 6.07129 3.99707 10.2227 3.99707
h28.4414c4.15527 0 7.56543 -1.3291 10.2178 -3.99707c2.6748 -2.66699 4.00586 -6.07129 4.00586 -10.2227v-99.5527h99.5527z" />
    <glyph glyph-name="024-copy" unicode="&#xf117;" 
d="M171.358 388.651c-10.2393 0.0947266 -18.8438 -7.29883 -20.5186 -17.1338l-0.21582 -3.38086c-0.0244141 -0.375 -0.0556641 -0.749023 -0.0927734 -1.11914c-0.0185547 -0.182617 -0.0380859 -0.365234 -0.0605469 -0.546875l-0.110352 -2.91797l-0.383789 0.0146484
c-3.11328 -14.0332 -16.0664 -24.0977 -30.8584 -23.1514c-14.2666 0.911133 -25.5312 11.7598 -27.4834 25.3711l-0.580078 0.0214844l0.200195 5.26172c1.64453 43.2402 37.3857 77.3291 80.6553 76.9258l257.706 -2.39746
c43.6035 -0.405273 78.8428 -35.668 79.2227 -79.2705l2.2627 -260.714c0.358398 -41.1729 -31.3164 -75.5479 -72.3809 -78.5527l-0.0214844 0.291016c-13.458 -0.0146484 -25.6543 9.18945 -28.8848 22.8535c-3.77051 15.9482 6.10156 31.9346 22.0508 35.7041
l4.40527 1.04199l0.106445 -0.449219c8.86816 1.60449 15.46 9.3916 15.3789 18.5957l-2.2627 260.714c-0.0976562 11.2432 -9.18555 20.3359 -20.4277 20.4414zM59.3477 320.252h270.892c32.7754 0 59.3477 -26.5713 59.3477 -59.3486v-242.879
c0 -32.7764 -26.5723 -59.3477 -59.3477 -59.3477h-270.892c-32.7764 0 -59.3477 26.5713 -59.3477 59.3477v242.879c0 32.7773 26.5713 59.3486 59.3477 59.3486zM63.7627 238.525v-197.009c0 -11.1113 9.00781 -20.1182 20.1182 -20.1182h221.824
c11.1113 0 20.1182 9.00684 20.1182 20.1182v197.009c0 11.1113 -9.00684 20.1182 -20.1182 20.1182h-221.824c-11.1104 0 -20.1182 -9.00684 -20.1182 -20.1182z" />
    <glyph glyph-name="012-long-arrow-down" unicode="&#xf10b;" 
d="M460.663 168.548c10.9219 -10.918 10.9219 -28.6885 0 -39.6025l-184.758 -184.77c-5.26172 -5.26172 -12.3047 -8.17578 -19.8008 -8.17578h-0.0791016c-7.55566 0 -14.6152 2.91406 -19.877 8.17578l-184.794 184.773
c-10.915 10.918 -10.9609 28.6807 -0.0458984 39.5986l16.6787 16.7754c5.27051 5.27441 12.1133 8.19238 19.6064 8.19238c7.50098 0 14.1357 -2.91797 19.4102 -8.19238l108.215 -109.006v343.664c0 15.4434 14.124 28.0186 29.5586 28.0186h23.7314
c15.4385 0 26.7109 -12.5752 26.7109 -28.0186v-342.444l108.432 107.786c5.26562 5.27441 12.9414 8.19238 20.4424 8.19238c7.49316 0 14.5322 -2.91797 19.7979 -8.19238z" />
    <glyph glyph-name="005-long-arrow-back" unicode="&#xf104;" 
d="M483.22 232.15c15.4307 0 28.7803 -12.2588 28.7803 -27.6816v-23.7139c0 -15.4229 -12.9668 -28.7217 -28.3975 -28.7217h-343.406l108.919 -108.544c5.27344 -5.2666 8.16699 -11.9219 8.16699 -19.4111c0 -7.49219 -2.89355 -14.5186 -8.16699 -19.7803
l-16.7588 -16.7666c-5.26953 -5.26172 -12.292 -8.16309 -19.7803 -8.16309c-7.49707 0 -14.5195 2.89746 -19.7891 8.16309l-184.624 184.624c-5.29102 5.28223 -8.18359 12.333 -8.16309 19.8721c-0.0205078 7.49609 2.87207 14.5439 8.16309 19.835l184.624 184.606
c5.26953 5.27051 12.2959 8.16309 19.7891 8.16309c7.48828 0 14.5107 -2.91406 19.7803 -8.18359l16.7588 -16.7666c5.27344 -5.28223 8.16699 -12.3721 8.16699 -19.8643c0 -7.49316 -2.89355 -14.6318 -8.16699 -19.9014l-107.703 -107.94h342.606z" />
    <glyph glyph-name="028-bold-triangle-right" unicode="&#xf11b;" 
d="M157.852 440.652l231.302 -231.299c9.5 -9.5 9.5 -25.1953 0 -34.6992l-231.302 -231.302c-15.6953 -15.6963 -42.1299 -4.54395 -42.1299 17.3477v462.604c0 21.8906 26.4346 33.043 42.1299 17.3477z" />
    <glyph glyph-name="067-clock" unicode="&#xf142;" 
d="M256 448c141.161 0 256 -114.839 256 -256s-114.839 -256 -256 -256s-256 114.839 -256 256s114.839 256 256 256zM256 -8.04395c110.307 0 200.044 89.7373 200.044 200.044c0 110.302 -89.7373 200.044 -200.044 200.044s-200.044 -89.7422 -200.044 -200.044
c0 -110.307 89.7373 -200.044 200.044 -200.044zM278.159 191.692l74.4209 -74.418c8.47266 -8.4668 8.4668 -22.1973 0 -30.6699c-8.46582 -8.47168 -22.1963 -8.47168 -30.6689 0l-80.7734 80.7676c-4.50391 4.50488 -6.53516 10.4922 -6.25 16.3896
c-0.0166016 0.341797 -0.100586 0.661133 -0.100586 1.00195v114.225c0 11.9805 9.70898 21.6885 21.6885 21.6885c11.9756 0 21.6836 -9.70801 21.6836 -21.6885v-107.296z" />
    <glyph glyph-name="065-calendar" unicode="&#xf140;" 
d="M128 448c10.0986 0 18.2852 -8.18652 18.2852 -18.2861v-36.5713h-36.5713v36.5713c0 10.0996 8.1875 18.2861 18.2861 18.2861zM384 448c10.0986 0 18.2861 -8.18652 18.2852 -18.2861v-36.5713h-36.5713v36.5713c0 10.0996 8.18652 18.2861 18.2861 18.2861z
M457.143 393.143c30.2969 0 54.8574 -24.5596 54.8574 -54.8564v-347.429c0 -30.2969 -24.5605 -54.8574 -54.8574 -54.8574h-402.285c-30.2969 0 -54.8574 24.5605 -54.8574 54.8574v347.429c0 30.2969 24.5605 54.8564 54.8574 54.8564h54.8555v-73.1426
c0 -10.0996 8.1875 -18.2861 18.2861 -18.2861c10.0996 0 18.2861 8.18652 18.2861 18.2861v73.1426h219.429v-73.1426c0 -10.0996 8.18652 -18.2861 18.2861 -18.2861c10.0986 0 18.2861 8.18652 18.2861 18.2861v73.1426h54.8564zM475.428 -9.14258v237.714h-438.856
v-237.714c0 -10.0996 8.18652 -18.2861 18.2861 -18.2861h402.284c10.0996 0 18.2861 8.18652 18.2861 18.2861zM146.285 192.001c10.0996 0 18.2861 -8.1875 18.2861 -18.2861c0 -10.0996 -8.18652 -18.2861 -18.2861 -18.2861h-36.5713
c-10.0986 0 -18.2861 8.18652 -18.2861 18.2861c0 10.0986 8.1875 18.2861 18.2861 18.2861h36.5713zM274.285 192.001c10.0996 0 18.2861 -8.1875 18.2861 -18.2861c0 -10.0996 -8.18652 -18.2861 -18.2861 -18.2861h-36.5703
c-10.0996 0 -18.2861 8.18652 -18.2861 18.2861c0 10.0986 8.18652 18.2861 18.2861 18.2861h36.5703zM402.286 192.001c10.0977 0 18.2861 -8.1875 18.2861 -18.2861c0 -10.0996 -8.1875 -18.2861 -18.2861 -18.2861h-36.5713
c-10.0996 0 -18.2861 8.18652 -18.2861 18.2861c0 10.0986 8.18652 18.2861 18.2861 18.2861h36.5713zM146.285 118.857c10.0996 0 18.2861 -8.18652 18.2861 -18.2861s-8.18652 -18.2861 -18.2861 -18.2861h-36.5713c-10.0986 0 -18.2861 8.18652 -18.2861 18.2861
s8.1875 18.2861 18.2861 18.2861h36.5713zM274.285 118.857c10.0996 0 18.2861 -8.18652 18.2861 -18.2861s-8.18652 -18.2861 -18.2861 -18.2861h-36.5703c-10.0996 0 -18.2861 8.18652 -18.2861 18.2861s8.18652 18.2861 18.2861 18.2861h36.5703zM402.286 118.857
c10.0977 0 18.2842 -8.18652 18.2861 -18.2861c0 -10.0996 -8.1875 -18.2861 -18.2861 -18.2861h-36.5713c-10.0996 0 -18.2861 8.18652 -18.2861 18.2861s8.18652 18.2861 18.2861 18.2861h36.5713zM146.285 45.7139c10.0996 0 18.2861 -8.18555 18.2861 -18.2842
c0 -10.0996 -8.18652 -18.2861 -18.2861 -18.2861h-36.5713c-10.0986 0 -18.2861 8.18555 -18.2861 18.2842c0 10.0996 8.1875 18.2861 18.2861 18.2861h36.5713zM274.285 45.7139c10.0996 0 18.2861 -8.18652 18.2861 -18.2861
c0 -10.0986 -8.18652 -18.2852 -18.2861 -18.2852h-36.5703c-10.0996 0 -18.2861 8.18652 -18.2861 18.2852c0 10.0996 8.18652 18.2861 18.2861 18.2861h36.5703zM402.286 45.7139c10.0977 0 18.2861 -8.18652 18.2861 -18.2861
c0 -10.0986 -8.1875 -18.2852 -18.2861 -18.2852h-36.5713c-10.0996 0 -18.2861 8.18652 -18.2861 18.2852c0 10.0996 8.18652 18.2861 18.2861 18.2861h36.5713z" />
    <glyph glyph-name="050-more-ver" unicode="&#xf131;" horiz-adv-x="511" 
d="M301.254 429.255c24.9941 -24.9932 24.9941 -65.5156 0 -90.5098c-24.9922 -24.9932 -65.5156 -24.9932 -90.5078 0c-24.9941 24.9941 -24.9941 65.5166 0 90.5098c24.9922 24.9941 65.5137 24.9941 90.5078 0zM301.254 237.254
c24.9941 -24.9932 24.9941 -65.5156 0 -90.5088c-24.9922 -24.9941 -65.5156 -24.9941 -90.5078 0c-24.9941 24.9932 -24.9941 65.5156 0 90.5088c24.9922 24.9941 65.5137 24.9941 90.5078 0zM301.254 45.2559c24.9941 -24.9941 24.9941 -65.5166 0 -90.5098
c-24.9922 -24.9941 -65.5156 -24.9941 -90.5078 0c-24.9941 24.9932 -24.9941 65.5156 0 90.5098c24.9922 24.9932 65.5137 24.9932 90.5078 0z" />
    <glyph glyph-name="002-double-arrow-back" unicode="&#xf101;" 
d="M279.698 -1.64453c13.916 -13.917 13.916 -36.4873 0 -50.4023c-13.916 -13.9287 -36.4873 -13.9287 -50.4092 0l-218.859 218.85c-6.9541 6.95801 -10.4297 16.0801 -10.4297 25.2002c0 9.11914 3.48145 18.2402 10.4297 25.1943l218.859 218.854
c13.9219 13.9219 36.4932 13.9219 50.4092 0c13.916 -13.917 13.916 -36.4844 0 -50.4072l-193.647 -193.641zM307.916 192.003l193.648 -193.647c13.916 -13.915 13.916 -36.4863 0 -50.4023c-13.916 -13.9287 -36.4883 -13.9287 -50.4102 0l-218.858 218.85
c-6.94824 6.95801 -10.4307 16.0781 -10.4307 25.2002c0 9.11914 3.47559 18.2334 10.4307 25.1943l218.858 218.854c13.9219 13.9219 36.4941 13.9219 50.4102 0c13.916 -13.916 13.916 -36.4854 0 -50.4072z" />
    <glyph glyph-name="062-gear" unicode="&#xf13d;" 
d="M487.322 236.052c14.2949 -2.86719 24.6777 -15.5225 24.6777 -30.1045v-27.873c0 -14.6035 -10.3828 -27.2588 -24.6787 -30.1279l-38.7695 -7.74121c-10.0146 -2.00684 -18.3496 -8.92871 -22.3232 -18.5342c-4.11621 -9.97266 -3.0918 -20.7246 2.56055 -29.2041
l21.9141 -32.8701c8.11035 -12.165 6.49219 -28.4463 -3.85059 -38.7686l-19.7012 -19.6807c-10.2812 -10.3223 -26.583 -11.9609 -38.748 -3.85059l-32.8701 21.8936c-8.47949 5.67285 -19.21 6.71777 -28.7949 2.72363
c-10.0156 -4.11719 -16.9375 -12.4521 -18.9443 -22.4668l-7.74121 -38.748c-2.86719 -14.3164 -15.5234 -24.6992 -30.126 -24.6992h-27.8525c-14.6035 0 -27.2588 10.3828 -30.1279 24.6787l-7.74121 38.7695c-2.00684 10.0146 -8.92871 18.3496 -18.5342 22.3027
c-9.95312 4.13672 -20.7051 3.13281 -29.2041 -2.55957l-32.8701 -21.8936c-12.1445 -8.10938 -28.4463 -6.45117 -38.7686 3.85059l-19.6807 19.7012c-10.3428 10.3018 -11.9609 26.583 -3.85059 38.748l21.8936 32.8701c5.67285 8.47949 6.69629 19.2314 2.72363 28.7949
c-4.11719 10.0156 -12.4521 16.9375 -22.4668 18.9443l-38.748 7.74121c-14.3164 2.86719 -24.6992 15.5234 -24.6992 30.126v27.873c0 14.582 10.3828 27.2373 24.6777 30.1064l38.7695 7.74121c10.0146 2.00684 18.3496 8.92871 22.3027 18.5342
c4.13672 9.97266 3.11328 20.7246 -2.55957 29.2041l-21.8936 32.8701c-8.11035 12.165 -6.49219 28.4463 3.85059 38.7686l19.7012 19.7012c10.3018 10.3223 26.6035 11.9199 38.748 3.83008l32.8701 -21.8936c8.47949 -5.69336 19.2314 -6.69629 28.7949 -2.72363
c10.0156 4.11719 16.9375 12.4521 18.9443 22.4668l7.74121 38.748c2.84668 14.3164 15.5234 24.6992 30.126 24.6992h27.8525c14.6035 0 27.2803 -10.3828 30.1279 -24.6787l7.74121 -38.7695c2.00684 -10.0146 8.92871 -18.3496 18.5342 -22.3027
c9.93164 -4.0957 20.6836 -3.0918 29.2041 2.55957l32.8701 21.8936c12.1436 8.10938 28.4463 6.49219 38.748 -3.83008l19.7012 -19.7217c10.3428 -10.3018 11.9609 -26.583 3.85059 -38.748l-21.9141 -32.8701c-5.65234 -8.47949 -6.67578 -19.2314 -2.70312 -28.7949
c4.11719 -10.0156 12.4521 -16.9375 22.4668 -18.9443zM256 120.32c39.5264 0 71.6797 32.1533 71.6797 71.6797s-32.1533 71.6797 -71.6797 71.6797s-71.6797 -32.1533 -71.6797 -71.6797s32.1533 -71.6797 71.6797 -71.6797z" />
    <glyph glyph-name="042-bold-wide-arrow-next" unicode="&#xf129;" 
d="M202.954 -45.5859c-24.6055 24.5547 -24.6055 64.4268 0 89.0332l85.5693 85.6221h-217.202c-34.7842 0 -62.957 28.1729 -62.957 62.957s28.1729 62.957 62.957 62.957h217.202l-85.5693 85.5693c-24.6055 24.6055 -24.6055 64.4268 0 89.0322
c24.6064 24.5537 64.4795 24.5537 89.085 0l193.069 -193.069v0c4.19727 -4.19727 7.81641 -9.02441 10.7021 -14.2178c3.88281 -6.97754 6.13867 -14.6377 7.29297 -22.5078c0.628906 -4.0918 0.628906 -8.60352 0.367188 -12.748
c-0.945312 -14.585 -8.08008 -29.2754 -18.3633 -39.5586v0l-193.068 -193.069c-12.3291 -12.2764 -28.3838 -18.415 -44.543 -18.415c-16.1582 0 -32.2646 6.13965 -44.542 18.415z" />
    <glyph glyph-name="006-arrow-next" unicode="&#xf105;" 
d="M398.23 211.979c5.28223 -5.28711 8.18359 -12.3467 8.16699 -19.8848c0.0166016 -7.50977 -2.88477 -14.5732 -8.16699 -19.8643l-228.059 -228.05c-5.26953 -5.27441 -12.3047 -8.17969 -19.8057 -8.17969s-14.5312 2.90527 -19.8057 8.17969l-16.7793 16.7705
c-5.26953 5.27832 -8.17871 12.3086 -8.17871 19.8145c0 7.49609 2.90918 14.5273 8.17871 19.8008l191.541 191.541l-191.328 191.328c-10.9189 10.9141 -10.9189 28.6797 0 39.6104l16.7793 16.7754c5.26953 5.27441 12.3047 8.17969 19.8057 8.17969
s14.5352 -2.90527 19.8057 -8.17969z" />
    <glyph glyph-name="032-bold-double-arrow-next" unicode="&#xf11f;" 
d="M26.2568 -49.7578c-27.1133 22.1016 -31.1748 61.9805 -9.125 89.04l125.016 153.448l-123.803 151.972c-22.0498 27.1133 -17.9873 66.9912 9.12598 89.0938c27.1133 22.0488 66.9385 17.9873 89.041 -9.12598l156.349 -191.954
c18.9902 -23.3154 18.9902 -56.7061 0 -79.9688l-157.562 -193.433c-12.501 -15.3496 -30.7529 -23.3145 -49.1094 -23.3145c-14.0312 0 -28.168 4.69434 -39.9316 14.2422zM338.533 424.671l156.297 -191.903c18.9902 -23.3154 18.9902 -56.7051 0 -79.9678
l-157.562 -193.433c-12.502 -15.3496 -30.7529 -23.3154 -49.1094 -23.3154c-14.0312 0 -28.1689 4.69531 -39.9316 14.2432c-27.0605 22.0488 -31.1748 61.9277 -9.07324 89.041l125.017 153.448l-123.75 151.971c-22.1025 27.1133 -18.041 66.9395 9.07227 89.041
c27.1133 22.0498 66.9912 17.9883 89.041 -9.125z" />
    <glyph glyph-name="038-bold-arrow-up" unicode="&#xf125;" 
d="M496.702 53.2354c-23.124 -25.1934 -62.3594 -26.0156 -86.7266 -1.64844l-125.14 125.141c-16.1074 16.1064 -42.1309 16.1064 -58.2334 0l-125.14 -125.141c-23.959 -23.9541 -63.1895 -23.1318 -86.3184 2.06543c-21.8887 23.541 -19.4111 61.124 3.30469 83.8398
l195.346 195.351c11.5684 11.5635 26.8457 17.3457 42.127 17.3457s30.5615 -5.78223 42.126 -17.3457l195.351 -195.764c23.1318 -22.7158 25.1973 -59.8857 3.30371 -83.8438z" />
    <glyph glyph-name="051-bold-more-ver" unicode="&#xf132;" 
d="M256.017 311.012c-37.751 0 -68.2695 30.6523 -68.2695 68.5049c0 37.8193 30.5186 68.4834 68.2695 68.4834c37.6621 0 68.2139 -30.6523 68.2139 -68.4834c0 -37.8408 -30.5635 -68.5049 -68.2139 -68.5049zM256.028 123.512
c-37.752 0 -68.2812 30.6523 -68.2812 68.5049c0 37.8076 30.5186 68.5059 68.2695 68.5059c37.6621 0 68.2139 -30.6865 68.2363 -68.5059c-0.0224609 -37.875 -30.5967 -68.5049 -68.2246 -68.5049zM256.028 -64c-37.752 0 -68.2812 30.6523 -68.2812 68.5059
c0 37.8525 30.5186 68.4941 68.2695 68.4941c37.6621 0.0224609 68.2139 -30.6533 68.2139 -68.4941c0 -37.8418 -30.5742 -68.5059 -68.2021 -68.5059z" />
    <glyph glyph-name="029-bold-triangle-top" unicode="&#xf11c;" 
d="M273.35 325.153l231.298 -231.302c15.6963 -15.7002 4.54395 -42.1299 -17.3477 -42.1299h-462.604c-21.8906 0 -33.043 26.4297 -17.3477 42.1299l231.303 231.302c9.5 9.5 25.1953 9.5 34.6992 0z" />
    <glyph glyph-name="043-bold-wide-arrow-back" unicode="&#xf12a;" 
d="M220.246 -45.998l-197.331 197.646c-23.209 23.2617 -23.209 58.0752 0 81.2334l197.331 197.227c23.1572 23.1572 59.4346 24.1504 82.4355 1.15039c22.4775 -22.4775 20.0723 -60.376 -1.77734 -82.1738l-96.3916 -96.3916s243.123 -0.313477 243.228 -0.313477
c16.0996 0 31.625 -6.27344 42.6543 -17.9824c26.4512 -28.2275 19.3945 -77.626 -14.4795 -96.3916c-8.57227 -4.75781 -18.3477 -7.2666 -28.1748 -7.21484l-243.227 0.208984s96.3389 -96.2871 96.3906 -96.3389c21.9023 -21.9023 24.0986 -59.6445 1.77734 -82.0166
c-23.001 -23.001 -59.2783 -21.7988 -82.4355 1.3584z" />
    <glyph glyph-name="007-arrow-back" unicode="&#xf106;" 
d="M206.682 191.892l191.325 -191.325c10.9189 -10.915 10.9189 -28.6885 0 -39.6074l-16.7793 -16.7754c-5.27344 -5.27832 -12.3047 -8.18359 -19.8057 -8.18359c-7.50488 0 -14.5352 2.90527 -19.8057 8.18359l-227.844 227.832
c-5.29492 5.29004 -8.18848 12.3457 -8.16699 19.8887c-0.0214844 7.50977 2.87598 14.5732 8.16699 19.8594l228.057 228.053c5.26953 5.27832 12.2998 8.18359 19.8008 8.18359s14.54 -2.90527 19.8057 -8.18359l16.7842 -16.7754
c5.27344 -5.26953 8.1748 -12.3008 8.1748 -19.8057c0 -7.50098 -2.90137 -14.5361 -8.1748 -19.7969z" />
    <glyph glyph-name="063-info" unicode="&#xf13e;" 
d="M173.997 259.018c0 17.457 14.1445 31.6543 31.6543 31.6543h51.9521h30.1299h18.5098c17.457 0 31.6543 -14.1445 31.6543 -31.6543v-291.362c0 -17.457 -14.1445 -31.6543 -31.6543 -31.6543h-57.1055c-17.458 0 -31.6553 14.1445 -31.6553 31.6543v202.602h-11.8311
c-17.457 0 -31.6543 14.1455 -31.6543 31.6553v57.1055zM217.482 387.74c0 33.2803 26.9795 60.2598 60.2607 60.2598c33.2803 0 60.2598 -26.9795 60.2598 -60.2598c0 -33.2812 -26.9795 -60.2598 -60.2598 -60.2598c-33.2812 0 -60.2607 26.9785 -60.2607 60.2598z" />
    <glyph glyph-name="055-drag" unicode="&#xf136;" 
d="M42.6689 277.331h42.6621v-42.6621h-42.6621v-42.6689h-42.6689v42.6689c0 23.4561 19.2061 42.6621 42.6689 42.6621zM469.331 448c23.4629 0 42.6689 -19.2061 42.6689 -42.6689v-255.955c0 -23.4561 -19.2061 -42.6689 -42.6689 -42.6689h-127.975v42.624h-42.6689
v-42.624h-85.3564c-23.4561 0 -42.6621 19.2129 -42.6621 42.6689v85.293h42.6621v42.6621h-42.6621v128c0 23.4629 19.2061 42.6689 42.6621 42.6689h256zM298.688 192h42.6689v42.6689c0 23.4561 -19.2129 42.6621 -42.6689 42.6621h-42.6875v-42.6621h42.6875v-42.6689z
M128 -63.9814v42.6689h85.3311v-42.6689h-85.3311zM298.688 21.3311h42.6689v-42.6621c0 -23.4629 -19.2129 -42.6689 -42.6689 -42.6689h-42.6875v42.6689h42.6875v42.6621zM42.6689 -21.3311h42.6621v-42.6689h-42.6621c-23.4629 0 -42.6689 19.2061 -42.6689 42.6689
v42.6621h42.6689v-42.6621zM0 64v85.3311h42.6689v-85.3311h-42.6689z" />
    <glyph glyph-name="014-plus" unicode="&#xf10d;" 
d="M483.969 231.996c15.4434 0 28.0312 -12.4873 28.0312 -27.9346v-24.1934c0 -15.4307 -12.5879 -27.8691 -28.0312 -27.8691h-187.966v-188.324c0 -15.4307 -12.5049 -27.6729 -27.9482 -27.6729h-24.0557c-15.4434 0 -27.9971 12.2383 -27.9971 27.6729v188.324h-188
c-15.4395 0 -28.002 12.4346 -28.002 27.8691v24.1934c0 15.4473 12.5664 27.9346 28.002 27.9346h187.995v187.646c0 15.4434 12.5586 28.3555 27.998 28.3555h24.0557c15.4434 0 27.9473 -12.9121 27.9473 -28.3555v-187.646h188h-0.0292969z" />
    <glyph glyph-name="016-round" unicode="&#xf10f;" 
d="M483.799 152.03c0.0546875 0 0.108398 -0.00390625 0.163086 -0.00390625h0.0566406zM503.679 143.631c5.32031 -5.29102 8.32129 -12.4502 8.32129 -19.9229v-139.634c0 -15.4268 -12.6797 -27.9023 -28.1055 -27.9023h-23.7061
c-15.4268 0 -28.1309 12.4756 -28.1309 27.9023v22.6738c-47.9658 -44.998 -111.121 -70.6318 -176.249 -70.6318c-141.092 0 -255.809 114.788 -255.809 255.884s114.792 255.884 255.884 255.884c105.613 0 201.765 -66.3193 239.266 -165.015
c7.83008 -20.6006 -2.55957 -43.7363 -23.1641 -51.5576c-4.5625 -1.74023 -9.33691 -2.62207 -14.1865 -2.62207c-16.4922 0 -31.5146 10.3643 -37.376 25.7832c-25.7793 67.8711 -91.9023 113.473 -164.535 113.473c-97.0137 0 -175.937 -78.9277 -175.937 -175.945
s78.9355 -175.945 175.944 -175.945c48.9023 0 95.3369 20.3262 128.7 56.0537l-40.6396 0.00878906c-7.44727 0 -14.415 2.91797 -19.71 8.2168s-8.10449 12.3174 -8.10449 19.7637v23.7061c0 15.4229 12.333 28.2227 27.7598 28.2227h140.061
c7.41504 -0.0449219 14.4482 -3.10352 19.7168 -8.39551z" />
    <glyph glyph-name="027-bold-triangle-bottom" unicode="&#xf11a;" 
d="M487.3 332.278c21.8916 0 33.0439 -26.4346 17.3525 -42.1299l-231.303 -231.302c-9.50391 -9.5 -25.1992 -9.5 -34.6992 0l-231.303 231.302c-15.6953 15.6953 -4.54297 42.1299 17.3477 42.1299h462.604z" />
    <glyph glyph-name="048-bold-check-1" unicode="&#xf12f;" 
d="M231.762 18.5566c-23.2129 -23.2129 -60.8789 -23.2129 -84.0801 0l-130.271 130.271c-23.2139 23.2021 -23.2139 60.8672 0 84.0693c23.2012 23.2129 60.8672 23.2129 84.0801 0l77.6162 -77.6045c5.85938 -5.84863 15.3711 -5.84863 21.2412 0l210.162 210.161
c23.2021 23.2139 60.8672 23.2139 84.0801 0c11.1475 -11.1465 17.4102 -26.2715 17.4102 -42.0342s-6.2627 -30.8877 -17.4102 -42.0352z" />
    <glyph glyph-name="001-double-arrow-next" unicode="&#xf100;" 
d="M425.955 192.005l-193.651 193.641c-13.916 13.9219 -13.916 36.4912 0 50.4072c13.916 13.9219 36.4844 13.9219 50.4062 0l218.856 -218.854c6.95801 -6.96191 10.4336 -16.0762 10.4336 -25.1943c0 -9.12207 -3.48145 -18.2432 -10.4336 -25.2012l-218.856 -218.852
c-13.9219 -13.9287 -36.4912 -13.9287 -50.4062 0c-13.916 13.916 -13.916 36.4873 0 50.4023zM10.4365 -1.64551l193.656 193.65l-193.656 193.641c-13.916 13.9229 -13.916 36.4912 0 50.4072c13.916 13.9219 36.4785 13.9219 50.4072 0l218.857 -218.854
c6.95117 -6.95508 10.4277 -16.0762 10.4277 -25.1953c0 -9.12207 -3.46973 -18.2422 -10.4277 -25.2012l-218.857 -218.85c-13.9297 -13.9287 -36.4912 -13.9287 -50.4072 0c-13.916 13.915 -13.916 36.4854 0 50.4023z" />
    <glyph glyph-name="021-solid-minus" unicode="&#xf114;" 
d="M482.883 418.875c19.4053 -19.4072 29.1172 -42.8877 29.1172 -70.4385v-312.873c0 -27.2637 -9.70605 -50.6709 -29.1172 -70.2207c-19.4131 -19.5625 -42.8838 -29.332 -70.4355 -29.332h-312.894c-27.5527 0 -51.0361 9.77148 -70.4424 29.332
c-19.4102 19.5488 -29.1113 42.9561 -29.1113 70.2207v312.873c0 27.5508 9.70605 51.0312 29.1113 70.4365c19.4004 19.4102 42.8857 29.1162 70.4424 29.1162h312.894c27.5518 0 51.0225 -9.70605 70.4355 -29.1143zM455.105 35.5498v312.879
c0 11.8506 -4.1543 21.9268 -12.4434 30.2207c-8.28809 8.29883 -18.3682 12.4443 -30.2148 12.4443h-312.894c-11.8516 0 -21.9277 -4.15234 -30.2207 -12.4443c-8.29688 -8.29395 -12.4404 -18.3701 -12.4404 -30.2207v-312.879
c0 -11.8525 4.14355 -21.9316 12.4404 -30.2207c8.30078 -8.30078 18.3691 -12.4443 30.2207 -12.4443h312.883c11.8477 0 21.9268 4.14355 30.2148 12.4443c8.29395 8.28906 12.4541 18.3682 12.4541 30.2207zM384 220.435c4.14355 0 7.55371 -1.33691 10.2158 -3.99707
c2.66309 -2.66211 3.99023 -6.07617 3.99023 -10.2227v-28.4414c0 -4.15039 -1.3252 -7.55762 -3.99023 -10.2168c-2.66211 -2.65918 -6.07227 -4.00098 -10.2158 -4.00098h-255.998c-4.14648 0 -7.55566 1.3418 -10.2227 4.00098
c-2.66797 2.65918 -3.99707 6.06641 -3.99707 10.2168v28.4414c0 4.14648 1.33398 7.55566 3.99707 10.2227c2.66016 2.66602 6.07617 3.99707 10.2227 3.99707h255.998z" />
    <glyph glyph-name="018-refresh" unicode="&#xf111;" 
d="M499.001 425.004c8.67676 -3.79004 12.999 -10.3457 13.001 -19.6758v-149.335c0 -5.77832 -2.10938 -10.7773 -6.32715 -14.999c-4.22461 -4.22266 -9.22266 -6.33203 -15 -6.33203h-149.331c-9.33789 0 -15.8936 4.44336 -19.6777 13.333
c-3.77051 8.66504 -2.2207 16.333 4.67188 23.001l46.0098 45.9922c-32.8896 30.4453 -71.6699 45.668 -116.337 45.668c-23.1074 0 -45.1689 -4.50195 -66.1641 -13.5c-21.002 -9.00098 -39.166 -21.168 -54.501 -36.502c-15.334 -15.3301 -27.5 -33.499 -36.498 -54.4961
c-8.99512 -20.9951 -13.5 -43.0566 -13.5 -66.168c0 -23.1123 4.50098 -45.1631 13.5 -66.1631c9.00195 -21.0049 21.168 -39.166 36.498 -54.502c15.3301 -15.334 33.499 -27.5 54.501 -36.4971c21 -9.00098 43.0566 -13.501 66.1641 -13.501
c26.4453 0 51.4443 5.77344 74.9971 17.3242c23.5566 11.5645 43.4453 27.8936 59.667 49.0088c1.55762 2.22168 4.11133 3.55957 7.66602 4.00293c3.11328 0 5.88184 -0.998047 8.33496 -2.99512l45.6592 -45.999c1.99805 -1.77832 3.06055 -4.05566 3.16504 -6.83203
c0.114258 -2.77734 -0.719727 -5.27832 -2.49414 -7.5c-24.2275 -29.335 -53.5615 -52.0605 -88.0029 -68.166c-34.4395 -16.1123 -70.7822 -24.167 -109.002 -24.167c-34.665 0 -67.7754 6.78027 -99.3311 20.3359c-31.5576 13.5566 -58.7803 31.7783 -81.668 54.6611
c-22.8906 22.8887 -41.1094 50.1104 -54.668 81.6689c-13.5547 31.5566 -20.334 64.6699 -20.334 99.3301c0 34.6699 6.7793 67.7764 20.333 99.334c13.5547 31.5547 31.7783 58.7744 54.668 81.665c22.8877 22.8896 50.1104 41.1084 81.668 54.6631
c31.5547 13.5537 64.665 20.334 99.3311 20.334c32.667 0 64.2793 -6.16602 94.835 -18.499c30.5566 -12.333 57.7217 -29.7207 81.499 -52.166l43.333 43.0039c6.44824 6.88965 14.2236 8.43945 23.334 4.66895z" />
    <glyph glyph-name="023-code" unicode="&#xf116;" 
d="M81.0293 55.4961l-76.4912 119.716c-6.05078 9.46582 -6.05078 21.5898 0 31.0557l76.4971 119.712c8.57715 13.4229 26.4004 17.3457 39.8291 8.77344c13.4229 -8.57715 17.3506 -26.4062 8.77344 -39.8281l-66.5703 -104.185l66.5645 -104.195
c8.57617 -13.4189 4.64844 -31.252 -8.77441 -39.8301c-4.80371 -3.07422 -10.1855 -4.53906 -15.498 -4.53906c-9.51758 0 -18.8281 4.70605 -24.3301 13.3203zM391.143 46.7217c-13.4229 8.57715 -17.3506 26.4131 -8.77539 39.8301l66.5762 104.189l-66.5703 104.185
c-8.57617 13.416 -4.64844 31.251 8.77441 39.8281c13.4102 8.58398 31.2568 4.65527 39.8291 -8.77344l76.4854 -119.712c6.05078 -9.46582 6.05078 -21.5898 0 -31.0557l-76.4922 -119.712c-5.50098 -8.61914 -14.8174 -13.3184 -24.3291 -13.3184
c-5.31152 0 -10.6875 1.46289 -15.498 4.53906zM156.143 -16.2793c-14.3633 6.88184 -20.4199 24.1113 -13.5332 38.4746l174.828 364.552c6.88086 14.3623 24.1055 20.4189 38.4736 13.5322c14.3623 -6.88184 20.4189 -24.1104 13.5322 -38.4736l-174.822 -364.553
c-4.95996 -10.3428 -15.2803 -16.376 -26.0254 -16.376c-4.18164 0 -8.42676 0.918945 -12.4531 2.84375z" />
    <glyph glyph-name="017-reload" unicode="&#xf110;" 
d="M503.758 139.743c5.32812 -5.29492 8.24219 -12.3213 8.24219 -19.7979v-139.738c0 -15.4395 -12.5088 -28.21 -27.9521 -28.21h-23.7178c-15.4434 0 -28.3311 12.7705 -28.3311 28.21v26.2451c-47.999 -45.4854 -109.727 -70.4062 -176.465 -70.4062
c-108.698 0 -205.683 68.8906 -241.581 171.437c-3.53027 10.0781 -2.92188 20.9385 1.71484 30.5615c4.63281 9.62012 12.7373 16.8594 22.8232 20.3926c4.27539 1.49512 8.72559 2.23145 13.2168 2.23145c16.9707 0 32.1436 -10.8018 37.7549 -26.832
c24.6797 -70.502 91.4854 -117.951 166.237 -117.951c47.3076 0 92.4561 20.1133 125.282 52.1152h-37.0312c-7.44629 0 -14.4482 3.08496 -19.7471 8.37988c-5.30762 5.30273 -8.2041 12.4795 -8.2041 19.9385v23.7227c0 15.4346 12.5205 27.96 27.9512 27.96h140.001
c7.47656 0 14.499 -2.92188 19.8057 -8.25781zM498.084 276.521c3.53027 -10.0859 2.91797 -20.9375 -1.71484 -30.5654c-4.63281 -9.62402 -12.7334 -16.8594 -22.8232 -20.3926c-4.2793 -1.49902 -8.7207 -2.23145 -13.2158 -2.23145
c-16.9756 0 -32.1445 10.7979 -37.7549 26.8281c-24.6807 70.5059 -91.4814 117.955 -166.233 117.955c-47.3086 0 -92.46 -20.1094 -125.286 -52.1113h37.0215c15.4434 0 27.9229 -12.8828 27.9229 -28.3223v-23.7266c0 -15.4355 -12.4795 -27.9521 -27.9229 -27.9521
h-140.075l0.0830078 0.0625c-7.47559 0 -14.5146 2.91797 -19.8184 8.25391c-5.32812 5.30371 -8.2666 12.2637 -8.2666 19.7354v139.734c0 15.4346 12.5498 28.2139 27.9893 28.2139h23.7227c15.4434 0 28.2891 -12.7793 28.2891 -28.2139v-26.2451
c47.999 45.4844 109.738 70.4102 176.481 70.4102c108.698 0 205.704 -68.8906 241.602 -171.433z" />
    <glyph glyph-name="047-bold-long-arrow-next" unicode="&#xf12e;" 
d="M502.649 209.764c12.8037 -9.91211 12.3906 -29.3242 -0.826172 -38.8232l-159.427 -123.907c-16.1084 -12.8037 -40.8896 -1.23926 -40.8896 19.4121v42.541c0 13.626 -9.08691 24.3682 -22.7158 24.3682h-254.01c-13.6299 0 -24.7812 11.5654 -24.7812 24.7822v66.9092
c0 14.043 11.1514 23.9551 24.7812 23.9551h254.01c13.6289 0 22.7158 11.9775 22.7158 25.6074v42.542c0 21.0635 24.7812 32.6289 41.3027 19.8252z" />
    <glyph glyph-name="066-calendar-today" unicode="&#xf141;" 
d="M128 448c10.0986 0 18.2852 -8.18652 18.2852 -18.2861v-36.5713h-36.5713v36.5713c0 10.0996 8.1875 18.2861 18.2861 18.2861zM384 448c10.0986 0 18.2861 -8.18652 18.2852 -18.2861v-36.5713h-36.5713v36.5713c0 10.0996 8.18652 18.2861 18.2861 18.2861z
M457.143 393.143c30.2969 0 54.8574 -24.5596 54.8574 -54.8564v-347.429c0 -30.2969 -24.5605 -54.8574 -54.8574 -54.8574h-402.285c-30.2969 0 -54.8574 24.5605 -54.8574 54.8574v347.429c0 30.2969 24.5605 54.8564 54.8574 54.8564h54.8555v-73.1426
c0 -10.0996 8.1875 -18.2861 18.2861 -18.2861c10.0996 0 18.2861 8.18652 18.2861 18.2861v73.1426h219.429v-73.1426c0 -10.0996 8.18652 -18.2861 18.2861 -18.2861c10.0986 0 18.2861 8.18652 18.2861 18.2861v73.1426h54.8564zM475.428 -9.14258v237.714h-438.856
v-237.714c0 -10.0996 8.18652 -18.2861 18.2861 -18.2861h402.284c10.0996 0 18.2861 8.18652 18.2861 18.2861zM378.651 186.634c7.13965 -7.14551 7.13574 -18.7256 -0.00878906 -25.8652l-146.286 -146.286c-7.14062 -7.13965 -18.7148 -7.13965 -25.8555 0
l-73.1436 73.1426c-7.14551 7.14062 -7.14941 18.7207 -0.00976562 25.8652c7.13965 7.14551 18.7197 7.15039 25.8652 0.00976562l60.2158 -60.2148l133.357 133.358c7.14551 7.13867 18.7246 7.13574 25.8652 -0.00976562z" />
    <glyph glyph-name="041-bold-wide-arrow-up" unicode="&#xf128;" 
d="M300.509 421.076l193.039 -193.039c24.6016 -24.6016 24.6016 -64.416 0 -89.0176c-12.3271 -12.2754 -28.3789 -18.4131 -44.5361 -18.4131c-16.1553 0 -32.2598 6.13867 -44.5342 18.4131l-85.5566 85.5557v-217.169c0 -34.7783 -28.1689 -62.9473 -62.9482 -62.9473
c-34.7783 0 -62.9473 28.1689 -62.9473 62.9473v217.169l-85.5557 -85.5557c-24.6016 -24.6025 -64.417 -24.6025 -89.0186 0c-24.6016 24.6016 -24.6016 64.416 0 89.0176l193.039 193.039v0c6.1377 6.1377 13.4814 10.9639 21.5068 14.1113
c11.2256 4.40625 23.8672 5.55957 35.6699 3.04199c2.67578 -0.577148 5.35156 -1.31152 7.92188 -2.20312c8.91797 -3.09473 17.2061 -8.23535 23.9199 -14.9502v0z" />
    <glyph glyph-name="015-arrow-up" unicode="&#xf10e;" 
d="M503.814 106.176c10.9141 -10.918 10.9141 -28.6885 0 -39.6074l-16.7842 -16.7871c-5.27344 -5.26562 -12.2998 -8.1709 -19.8008 -8.1709c-7.50488 0 -14.5361 2.90527 -19.8057 8.1709l-191.537 191.545l-191.325 -191.324
c-5.27344 -5.27051 -12.3047 -8.17969 -19.8057 -8.17969s-14.5352 2.90918 -19.8057 8.17969l-16.7793 16.7793c-5.27344 5.26953 -8.1709 12.3047 -8.1709 19.8057s2.90137 14.5312 8.1709 19.8057l227.844 227.835c5.26172 5.26953 12.292 8.16211 19.793 8.16211
c7.65527 0 14.6816 -2.89258 19.9512 -8.16211z" />
    <glyph glyph-name="034-bold-double-arrow-down" unicode="&#xf121;" 
d="M23.3037 331.784c-27.0615 22.1035 -31.1758 61.9307 -9.07324 89.0449c22.0498 27.1143 61.9307 31.1768 89.0449 9.12598l151.978 -123.808l153.455 125.021c27.1143 22.0498 66.9941 17.9883 89.0439 -9.12598c22.1035 -27.1152 18.041 -66.9424 -9.07324 -89.0449
l-193.439 -157.569c-11.6582 -9.49512 -25.7959 -14.2432 -39.9863 -14.2432s-28.3271 4.74805 -39.9854 14.2432zM23.3037 109.226c-27.0615 22.0508 -31.1758 61.9297 -9.07324 89.0459c22.0498 27.0615 61.9307 31.1758 89.0449 9.07227l151.978 -123.755
l153.455 124.969c27.1143 22.1025 66.9414 18.04 89.0439 -9.07422c22.1035 -27.1143 18.041 -66.9414 -9.07324 -89.0439l-193.439 -157.569c-11.6582 -9.49512 -25.7959 -14.2432 -39.9863 -14.2432s-28.3271 4.74805 -39.9854 14.2432z" />
    <glyph glyph-name="046-bold-long-arrow-back" unicode="&#xf12d;" 
d="M9.62109 170.731c-12.8281 9.92773 -12.8281 29.3818 0 39.3135l159.321 127.457c16.5527 12.8281 40.5547 0.827148 40.5547 -19.8643v-42.623c0 -13.6562 10.7549 -25.6572 24.4111 -25.6572h254.5c13.6602 0 23.5879 -10.3457 23.5879 -24.001v-66.626
c0 -13.6553 -9.92773 -25.2432 -23.5879 -25.2432h-254.5c-13.6523 0 -24.4111 -10.7588 -24.4111 -24.415v-43.0371c0 -20.6914 -24.002 -32.2822 -40.1406 -19.4502z" />
    <glyph glyph-name="009-check" unicode="&#xf108;" 
d="M503.808 339.275c10.9229 -10.915 10.9229 -28.6514 -0.00390625 -39.5537l-254.734 -254.709c-0.137695 -0.225586 -0.366211 -0.446289 -0.636719 -0.711914l-16.7793 -16.6426c-5.26172 -5.25293 -12.293 -7.87988 -19.7979 -7.87988h-0.0869141
c-7.55957 0 -14.5898 2.62695 -19.8604 7.87988l-16.7754 16.4971c-0.270508 0.265625 -0.50293 0.557617 -0.723633 0.869141l-166.238 166.229c-5.27344 5.27441 -8.1709 12.3047 -8.1709 19.8018c0 7.49219 2.89746 14.5273 8.1709 19.8096l16.7754 16.7676
c5.27441 5.26562 12.3008 8.1709 19.7979 8.1709c7.50098 0 14.5312 -2.90527 19.8008 -8.1709l147.235 -147.24l235.658 235.653c5.26953 5.27441 12.2998 8.17578 19.8008 8.17578s14.5273 -2.90137 19.7979 -8.17578z" />
    <glyph glyph-name="011-minus" unicode="&#xf10a;" 
d="M483.969 232.001c15.4434 0 28.0312 -12.6299 28.0312 -28.0645v-23.7314c0 -15.4346 -12.5879 -28.2061 -28.0312 -28.2061h-455.967c-15.4395 0 -28.002 12.7715 -28.002 28.2061v23.7314c0 15.4346 12.5664 28.0645 28.002 28.0645h455.967z" />
    <glyph glyph-name="037-bold-arrow-back" unicode="&#xf124;" 
d="M396.727 346.389l-125.144 -125.553c-16.1074 -16.1113 -16.1074 -42.1309 0 -58.2373l124.727 -125.141c23.9541 -23.9502 23.1318 -63.1846 -2.06543 -86.3135c-23.541 -21.8926 -61.124 -19.4111 -83.8389 3.30469l-195.351 195.351
c-11.5645 11.5635 -17.3467 26.8447 -17.3467 42.126s5.78223 30.5576 17.3467 42.126l195.764 195.351c22.7148 23.1279 59.8848 25.1934 83.8438 3.30371c25.6016 -23.124 26.0146 -62.3594 2.06445 -86.3174z" />
    <glyph glyph-name="060-menu-grid" unicode="&#xf13b;" 
d="M0 382.101c0 36.3955 29.5039 65.8994 65.8994 65.8994c36.3945 0 65.8994 -29.5039 65.8994 -65.8994c0 -36.3945 -29.5049 -65.8994 -65.8994 -65.8994c-36.3955 0 -65.8994 29.5049 -65.8994 65.8994zM190.102 382.101c0 36.3955 29.5039 65.8994 65.8994 65.8994
c36.3945 0 65.8984 -29.5039 65.8984 -65.8994c0 -36.3945 -29.5039 -65.8994 -65.8984 -65.8994c-36.3955 0 -65.8994 29.5049 -65.8994 65.8994zM380.203 382.101c0 36.3955 29.5039 65.8994 65.8984 65.8994c36.3955 0 65.8994 -29.5039 65.8994 -65.8994
c0 -36.3945 -29.5039 -65.8994 -65.8994 -65.8994c-36.3945 0 -65.8984 29.5049 -65.8984 65.8994zM0 191.999c0 36.3955 29.5039 65.8994 65.8994 65.8994c36.3945 0 65.8994 -29.5039 65.8994 -65.8994c0 -36.3945 -29.5049 -65.8984 -65.8994 -65.8984
c-36.3955 0 -65.8994 29.5039 -65.8994 65.8984zM190.102 191.999c0 36.3955 29.5039 65.8994 65.8994 65.8994c36.3945 0 65.8984 -29.5039 65.8984 -65.8994c0 -36.3945 -29.5039 -65.8984 -65.8984 -65.8984c-36.3955 0 -65.8994 29.5039 -65.8994 65.8984z
M380.203 191.999c0 36.3955 29.5039 65.8994 65.8984 65.8994c36.3955 0 65.8994 -29.5039 65.8994 -65.8994c0 -36.3945 -29.5039 -65.8984 -65.8994 -65.8984c-36.3945 0 -65.8984 29.5039 -65.8984 65.8984zM0 1.89844c0 36.3945 29.5039 65.8984 65.8994 65.8984
c36.3945 0 65.8994 -29.5039 65.8994 -65.8984c0 -36.3955 -29.5049 -65.8994 -65.8994 -65.8994c-36.3955 0 -65.8994 29.5039 -65.8994 65.8994zM190.102 1.89844c0 36.3945 29.5039 65.8984 65.8994 65.8984c36.3945 0 65.8984 -29.5039 65.8984 -65.8984
c0 -36.3955 -29.5039 -65.8994 -65.8984 -65.8994c-36.3955 0 -65.8994 29.5039 -65.8994 65.8994zM380.203 1.89844c0 36.3945 29.5039 65.8984 65.8984 65.8984c36.3955 0 65.8994 -29.5039 65.8994 -65.8984c0 -36.3955 -29.5039 -65.8994 -65.8994 -65.8994
c-36.3945 0 -65.8984 29.5039 -65.8984 65.8994z" />
    <glyph glyph-name="052-more-hor" unicode="&#xf133;" 
d="M493.254 237.255c24.9941 -24.9932 24.9941 -65.5156 0 -90.5088c-24.9932 -24.9941 -65.5156 -24.9941 -90.5098 0c-24.9932 24.9932 -24.9932 65.5156 0 90.5088c24.9941 24.9941 65.5166 24.9941 90.5098 0zM301.255 237.255
c24.9941 -24.9932 24.9941 -65.5156 0 -90.5088c-24.9932 -24.9941 -65.5156 -24.9941 -90.5088 0c-24.9941 24.9932 -24.9941 65.5156 0 90.5088c24.9932 24.9941 65.5156 24.9941 90.5088 0zM109.256 237.255c24.9932 -24.9932 24.9932 -65.5156 0 -90.5088
c-24.9941 -24.9941 -65.5166 -24.9941 -90.5098 0c-24.9941 24.9932 -24.9941 65.5156 0 90.5088c24.9932 24.9941 65.5156 24.9941 90.5098 0z" />
    <glyph glyph-name="008-long-arrow-next" unicode="&#xf107;" 
d="M503.816 211.893c5.29492 -5.28613 8.2002 -12.3584 8.18359 -19.8965c0.0205078 -7.51367 -2.88867 -14.582 -8.17969 -19.877l-184.901 -184.9c-5.27734 -5.27832 -12.3125 -8.19238 -19.8135 -8.19238c-7.50879 0 -14.54 2.87598 -19.8184 8.1543l-16.7871 16.7383
c-5.27441 5.27344 -8.17969 12.2207 -8.17969 19.7178c0 7.50488 2.90527 14.3525 8.17969 19.6309l109.088 108.709h-343.928c-15.4512 0 -27.6602 13.3164 -27.6602 28.7725v23.7383c0 15.4561 12.209 27.5527 27.6602 27.5527h342.704l-107.868 108.105
c-5.27441 5.27051 -8.17969 12.5459 -8.17969 20.0469c0 7.50586 2.90527 14.5439 8.17969 19.8145l16.7871 16.791c5.27832 5.27441 12.3086 8.17578 19.8184 8.17578c7.50098 0 14.5352 -2.89746 19.8135 -8.17578z" />
    <glyph glyph-name="010-arrow-down" unicode="&#xf109;" 
d="M503.816 317.933c5.27832 -5.2666 8.18359 -12.4014 8.18359 -19.9062c-0.00878906 -7.50098 -2.90527 -14.7354 -8.18359 -20.0059l-227.834 -228.245c-5.26953 -5.26562 -12.292 -8.9834 -19.7969 -8.9834h-0.0878906c-7.56738 0 -14.5898 3.71289 -19.8594 8.9834
l-228.046 228.865c-10.9229 10.915 -10.9229 28.6934 0 39.6084l16.7754 16.7832c5.27344 5.27441 12.3086 8.17578 19.8096 8.17578s14.5322 -2.90137 19.8018 -8.17578l191.535 -191.535l191.314 191.323c5.27832 5.27344 12.3096 8.17969 19.8105 8.17969
c7.50488 0 14.5273 -2.90625 19.8057 -8.17969z" />
    <glyph glyph-name="031-bold-double-arrow-up" unicode="&#xf11e;" 
d="M63.3213 -59.9365c-18.3584 0 -36.5596 7.96582 -49.1152 23.3184c-22.0527 27.1172 -17.9902 67 9.12598 89.0518l191.927 156.422c23.2656 18.9922 56.7129 18.9922 79.9785 0l193.457 -157.635c27.0635 -22.0527 31.1777 -61.9355 9.07324 -89.0527
c-12.5029 -15.3516 -30.7568 -23.3184 -49.1162 -23.3184c-14.0322 0 -28.1709 4.69531 -39.9365 14.2441l-153.467 125.032l-151.99 -123.818c-11.7119 -9.60156 -25.9033 -14.2441 -39.9365 -14.2441zM63.3213 162.113c-18.3584 0 -36.5596 7.9668 -49.1152 23.3184
c-22.0527 27.1172 -17.9902 67 9.12598 89.1055l191.927 156.369c23.2656 18.9922 56.7129 18.9922 79.9785 0l193.457 -157.636c27.0635 -22.0518 31.1777 -61.9355 9.07324 -89.0518c-12.5029 -15.3525 -30.7568 -23.3184 -49.1162 -23.3184
c-14.0322 0 -28.1709 4.69434 -39.9365 14.2441l-153.467 125.032l-151.99 -123.819c-11.7119 -9.60156 -25.9033 -14.2441 -39.9365 -14.2441z" />
    <glyph glyph-name="039-bold-check" unicode="&#xf126;" 
d="M123.439 7.74023l-102.97 103.797c-27.293 27.293 -27.293 71.9502 0 99.248c27.293 27.293 71.9551 27.293 99.248 0l24.3984 -24.8125c16.1279 -16.1279 42.1807 -16.1279 58.3086 0l190.226 190.226c27.7021 28.1201 73.6045 27.707 100.897 -1.6543
c26.0527 -27.707 23.9854 -71.9551 -2.89453 -98.834l-267.966 -267.97c-13.2324 -13.2334 -31.0146 -20.6768 -49.624 -20.6768c-18.6084 0 -36.3906 7.44336 -49.624 20.6768z" />
    <glyph glyph-name="064-calendar-2" unicode="&#xf13f;" 
d="M128 166.4v51.1992h51.2002v-51.1992h-51.2002zM230.4 166.4v51.1992h51.1992v-51.1992h-51.1992zM332.8 166.4v51.1992h51.2002v-51.1992h-51.2002zM128 64v51.2002h51.2002v-51.2002h-51.2002zM230.4 64v51.2002h51.1992v-51.2002h-51.1992zM332.8 64v51.2002h51.2002
v-51.2002h-51.2002zM486.4 396.8c12.7998 0 25.5996 -10.2402 25.5996 -25.5996v-409.601c0 -15.3594 -12.7998 -25.5996 -25.5996 -25.5996h-460.801c-15.3594 0 -25.5996 10.2402 -25.5996 25.5996v409.601c0 15.3594 10.2402 25.5996 25.5996 25.5996h51.2002v25.6006
c0 15.3594 10.2402 25.5996 25.6006 25.5996c15.3594 0 25.5996 -10.2402 25.5996 -25.5996v-25.6006h256v25.6006c0 15.3594 10.2402 25.5996 25.5996 25.5996c15.3604 0 25.6006 -10.2402 25.6006 -25.5996v-25.6006h51.2002zM460.8 -12.7998v307.2h-409.6v-307.2h409.6z
" />
    <glyph glyph-name="030-bold-triangle-left" unicode="&#xf11d;" 
d="M354.148 440.652c15.7002 15.6953 42.1299 4.54297 42.1299 -17.3525v-462.604c0 -21.8906 -26.4297 -33.043 -42.1299 -17.3477l-231.302 231.303c-9.5 9.50391 -9.5 25.1992 0 34.6992z" />
    <glyph glyph-name="068-068-more-1-2" unicode="&#xf143;" 
d="M403.643 237.255c24.9932 -24.9912 24.9932 -65.5127 0 -90.5059c-24.9922 -24.9932 -65.5137 -24.9932 -90.5059 0c-24.9932 24.9932 -24.9932 65.5146 0 90.5059c24.9922 24.9932 65.5137 24.9932 90.5059 0zM197.937 237.255
c24.9932 -24.9912 24.9932 -65.5127 0 -90.5059s-65.5137 -24.9932 -90.5059 0c-24.9932 24.9932 -24.9932 65.5146 0 90.5059c24.9922 24.9932 65.5127 24.9932 90.5059 0z" />
    <glyph glyph-name="058-outline-info" unicode="&#xf139;" 
d="M256 448c141.213 0 256 -114.787 256 -256s-114.787 -256 -256 -256s-256 114.787 -256 256s114.787 256 256 256zM256 -2.06445c106.942 0 194.064 87.1221 194.064 194.064s-87.1221 194.064 -194.064 194.064s-194.064 -87.1221 -194.064 -194.064
s87.1221 -194.064 194.064 -194.064zM268.387 353.032c13.626 0 24.7744 -11.1484 24.7744 -24.7744v-169.29c0 -13.626 -11.1484 -24.7744 -24.7744 -24.7744h-24.7734c-13.626 0 -24.7744 11.1484 -24.7744 24.7744v169.29c0 13.626 11.1484 24.7744 24.7744 24.7744
h24.7734zM218.839 70.1934c0 20.5234 16.6377 37.1611 37.1611 37.1611s37.1611 -16.6377 37.1611 -37.1611s-16.6377 -37.1611 -37.1611 -37.1611s-37.1611 16.6377 -37.1611 37.1611z" />
    <glyph glyph-name="053-bold-more-hor" unicode="&#xf134;" 
d="M136.978 192.024c0 -37.7559 -30.6465 -68.2695 -68.4883 -68.2695c-37.8301 0.0126953 -68.4893 30.5254 -68.4893 68.2695c0 37.6465 30.6719 68.2207 68.4893 68.2207c37.8418 0 68.4883 -30.5742 68.4883 -68.2207zM324.477 192.024
c0 -37.7559 -30.6475 -68.2695 -68.4766 -68.2695s-68.4893 30.5137 -68.4893 68.2695c0 37.6465 30.6719 68.2207 68.4893 68.2207c37.8418 0 68.4766 -30.5742 68.4766 -68.2207zM511.987 192.024c0 -37.7559 -30.6465 -68.2695 -68.4883 -68.2695
c-37.8301 0 -68.4766 30.5137 -68.4766 68.2695c0 37.6465 30.6709 68.2207 68.4766 68.2207c37.8418 0 68.4883 -30.5742 68.4883 -68.2207z" />
    <glyph glyph-name="026-left-and-right" unicode="&#xf119;" 
d="M504.753 201.983c9.66406 -5.51074 9.66406 -14.4502 0 -19.9678l-121.18 -69.1367c-9.66309 -5.5127 -17.4971 -0.963867 -17.4971 10.1621v137.924c0 11.125 7.83398 15.6738 17.4971 10.1621zM128.427 271.127c9.66406 5.51172 17.4922 0.962891 17.498 -10.1621
v-137.93c0 -11.125 -7.83398 -15.6738 -17.498 -10.1621l-121.179 69.1426c-9.66406 5.51172 -9.66406 14.4561 0 19.9678z" />
    <glyph glyph-name="054-bold-menu" unicode="&#xf135;" 
d="M462.451 423.226c27.252 0 49.5488 -22.2969 49.5488 -49.5479c0 -27.252 -22.2969 -49.5488 -49.5488 -49.5488h-412.902c-27.252 0 -49.5488 22.2969 -49.5488 49.5488c0 27.251 22.2969 49.5479 49.5488 49.5479h412.902zM462.451 241.549
c27.252 0 49.5488 -22.2969 49.5488 -49.5488s-22.2969 -49.5488 -49.5488 -49.5488h-412.902c-27.252 0 -49.5488 22.2969 -49.5488 49.5488s22.2969 49.5488 49.5488 49.5488h412.902zM462.451 59.8711c27.252 0 49.5488 -22.2969 49.5488 -49.5488
c0 -27.251 -22.2969 -49.5479 -49.5488 -49.5479h-412.902c-27.252 0 -49.5488 22.2969 -49.5488 49.5479c0 27.252 22.2969 49.5488 49.5488 49.5488h412.902z" />
    <glyph glyph-name="049-close" unicode="&#xf130;" 
d="M312.391 192l191.426 -191.434c5.26562 -5.27441 8.1709 -12.3047 8.1709 -19.8018s-2.90527 -14.5312 -8.1709 -19.8018l-16.7754 -16.7705c-5.27441 -5.27832 -12.3047 -8.17578 -19.8018 -8.17578h-0.0078125c-7.49316 0 -14.5234 2.89746 -19.7979 8.17578
l-191.43 191.43l-191.438 -191.43c-5.26562 -5.27832 -12.3008 -8.17578 -19.8018 -8.17578c-7.48828 0 -14.5273 2.89746 -19.793 8.17578l-16.7793 16.7705c-5.27051 5.27441 -8.17188 12.3047 -8.17188 19.8018s2.90137 14.5273 8.17188 19.8057l191.434 191.43
l-191.434 191.438c-10.9229 10.9102 -10.9229 28.6758 0 39.5986l16.7832 16.7705c5.26562 5.2832 12.3008 8.17578 19.793 8.17578c7.50098 0 14.5361 -2.89258 19.8018 -8.17578l191.438 -191.425l191.43 191.425c5.27344 5.2832 12.3047 8.17578 19.7969 8.17578
c7.50488 0 14.5361 -2.89258 19.8096 -8.17578l16.7754 -16.7705c5.27441 -5.26172 8.17969 -12.3008 8.17969 -19.8018c-0.00878906 -7.49707 -2.91406 -14.5273 -8.17969 -19.7969z" />
  </font>
</defs>
</svg>
